Mulan Soundtrack M4a

Lyricists included Alexa Junge, David. Christina Aguilera - Loyal Brave True (From "Mulan") - Single [iTunes Plus AAC M4A] Lil Uzi Vert - Eternal Atake [iTunes Plus AAC M4A] Recent Posts. Categories Hot Release, Singles Tags Soundtrack Post navigation. Released on June 2, 1998, the album featured songs by Matthew Wilder and David Zippel, conducted by Paul Bogaev, and score composed and conducted by Jerry Goldsmith. Reflection (2020) [From "Mulan"]. Jay Park & Hit-Boy - This Wasn’t Supposed To Happen - EP [iTunes Purchased M4A] Genres: Hip-Hop , Rap , Music , World Released: Nov 15, 2019 ℗ 2019 AOMG Track List : 01. Mulan 2: The Final War (2004) [BluRay] [720p] [YTS] [YIFY] Fa Mulan gets the surprise of her young life when her love, Captain (now General) Li Shang asks for her hand in marriage. Featurettes, Soundtrack, 105 Kujo Kei Semaru II. Lee artículos completos, mira videos, explora miles de títulos y mucho más sobre "Entretenimiento" con Google Noticias. In Silence m4a. I loved the compilation that the movie and the music made. Mulan OST - 13 Mulan's decision (Synthesizer version score)_H264_AAC_360p m4a. Album · 1998 · 12 Songs. I have just bought zombie-land and it wont let me drag it onto my ipod so i click on my ipod and go to the movies tab and if i sync my ipod then it says that i will lose all. Sign In Mulan (An Original Walt Disney Records Soundtrack) Various Artists Soundtrack · 1998 Preview SONG. Mulan (An Original Walt Disney Records Soundtrack) - Various Artists Music - Download Free iTunes M4A Plus. Mulan (Original Motion Picture Soundtrack. Viewee Metal Detector for Kids, Classic Style Junior Metal Detector for Beginner, Height. Mulan 1998 Japanese Soundtrack High Quality Web Rip Flac 1 家に名誉を - Miyuki Ichijo, Hisako Kyoda, Eri Ito 2 リフレクション - Eri Ito. Christina Aguilera - Reflection (2020) [From "Mulan"] - Single [iTunes Plus AAC M4A] Calvin Harris, The Weeknd - Over Now - Single [iTunes Plus AAC M4A] Various Artists - At home with the kids [iTunes Plus AAC M4A] Latest. Title: 24k magic bruno mars itunes m4a, Author: Vjollca Šalinger, Name: 24k magic bruno mars itunes m4a, Length: 10 pages, Page: 1, Published: 2017-05-26 Issuu company logo Issuu. 9 MB: 07 Sting and Lector. Gregson-Williams-Mulan-Soundtrack-2020-M4A. So in effect using itunes as a ipod/iphone exchange, as DodgeTheViper is doing. The movie has a brilliant synthesizer passage, while the track on the CD has orchestral score of a totally different style. 17 Album , iTunesku , Pop. Mulan (Original Motion Picture Soundtrack) Various Artists Soundtrack 1997; Listen on Apple Music. Quality: Mastered for iTunes. 1 SAMPA) [QxR] ETTV torrent download - Free Download of Public Enemies (2009) + Extras (1080p BluRay x265 HEVC 10bit EAC3 5. Music > Rock > Metal Harry. Strange Things 06. I added the. Rob $tone – Stone Cold: DELUXE EDITION m4a Genre: Hip-Hop/Rap Release Date: May 8, 2020 Tracklist: Intro Shots at the Bar [Explicit] Big Body [Explicit] No Access – Rob $tone & Hardini [Explicit] Free Throw [Explicit] Too Faded – Rob $tone & P-LO [Explicit] Wait [Explicit] Standing by My Lady [Explicit] One More Drank [Explicit] […]. Vocalists included Lea Salonga, Donny Osmond, 98 Degrees, Jaz Coleman, Stevie Wonder and. iTunes UK Top 100 Song Downloads. Sign In Mulan (An Original Walt Disney Records Soundtrack) Various Artists Soundtrack · 1998 Preview SONG. Featurettes, Soundtrack, 105 Kujo Kei Semaru II. WEBSMP3 - Free MP3 Music Download. m4a 6,360 KB 28 Oyelo. Jason Mraz – Look For The Good [iTunes Plus AAC M4A] The Killers – My Own. The film is directed by Justin Kurzel and stars Michael Fassbender, Marion Cotillard, Michael K. Ok so I want to convert the movie Push into format that windows movie maker accepts, which is WMV. Although the new remake of "Mulan" isn't a musical like the original, one key music component from Disney's animated version is back. Petter Hedström) – Single [iTunes Plus AAC M4A]The Uniøn – Forgetting Yesterday (feat. Comment Report abuse. Mulan Jameela - Wonder Woman (from Mulan Jameela) (2008) [iTunes Plus AAC M4A] Unknown 10. Mulan II: Original Soundtrack is the soundtrack for the 2006 American direct-to-video Disney animated sequel film, Mulan II. Solomon's Porch Podcast. 6 Music Videos featuring Christina Aguilera, Stevie Wonder, 98*, Atomic Kitten, Jackie Chan & more DisneyPedia: "Mulan's World" -- Explore The Fascinating World Of Ancient China With Your Host, Mushu Storyboard-To-Film Comparisons. 줄거리올 여름, 그의 이름은 전설이 된다!미국 내 범죄가 최고조에 달했던 1930년대 경제 공황기. VA – Bravo Hits Vol. ★supply of happiness – the seek for treasure will entertain the kids for hours. Genres: Pop, Music Released: Dec 8, 2017 Track List: 1. Search Results of mulan trailer 2020. Reflection (2020) [From “Mulan. 03 Predestination -Strings ver. Ada Band - Masih sahabat Kekasihku (iTunes) Gratis Download Bagus m4a Salam lagu BAgus,Ada band adalah salah satu band besar di indoneisa,karya dan warna musiknya sangat berbeda dengan yang lain,dengan mengusung nada dan lirik yang melow Ada Band justru punya tempat tersendiri di hati para penikmat musik di indonesia. Lyricists included Alexa Junge, David. Reflection (2020) [From "Mulan"] Read More. m4a: 1 year : audio: 1: 2. Visit Tunefind for music from your favorite TV shows and movies. YtMp3 Video Converter. HoodyBaby Mp3 Download audio lyrics iTunes plus m4a cdqLil Duke released new song titled Beat It Feat. LEE SUHYUN of Akdong Musician - 숨겨진 내 모습 Reflection (From '뮬란 Mulan') - Single [iTunes Purchased M4A] Genres: Soundtrack , Music , Pop Released: Aug 31, 2020 ℗ 2020 Walt Disney Records Track List : 01. Composed by Jerry Goldsmith. Mulan Jameela. Various Artists – Mulan (Original Motion Picture Soundtrack) [iTunes Plus AAC M4A] 1 Views. Try it free. our “ speaking voice”. Close Send message. 7/9/2012 0 Comments This week we learnt a rhyme to tell the difference between BEAT and RHYTHM : We reviewed and read rhythms using ta,. On Friday (March 6), the pop legend released "Loyal Brave True," a. Hua Mulan 2009 Soundtrack — TheOST. if they’re fortunate, they might even discover. KSI) - Nathan Dawe. Available with an Apple Music subscription. mp3 CRC32 hash (test run) : AE1D7C96 CRC32 hash : AE1D7C96 CRC32 hash (skip zero) : AAD2DABC. m4a Apple Music Rip 256 Kbps. Viewee Metal Detector for Kids, Classic Style Junior Metal Detector for Beginner, Height. 1 SAMPA) [QxR] ETTV torrent download - Free Download of Public Enemies (2009) + Extras (1080p BluRay x265 HEVC 10bit EAC3 5. Mulan: An Original Walt Disney Records Soundtrack is the soundtrack for the 1998 Disney animated feature film, Mulan. Composed by Jerry Goldsmith. Try it free. Reflection (2020) [From “Mulan. 82 – Album Zip Quality: MP3 iTunes Plus AAC M4A Download Free MEGA Zippyshare Sharebeast. Nicki Minaj & M. iTunes-P2P Posted by szachtar On 5 September 2020 Leave a Comment. Mulan 1998 Japanese Soundtrack High Quality Web Rip Flac 1 家に名誉を - Miyuki Ichijo, Hisako Kyoda, Eri Ito 2 リフレクション - Eri Ito. Music Genre: Soundtrack Released On: August 28, 2020. Browse Radio Try Beta. Title: 24k magic bruno mars itunes m4a, Author: Vjollca Šalinger, Name: 24k magic bruno mars itunes m4a, Length: 10 pages, Page: 1, Published: 2017-05-26 Issuu company logo Issuu. 08 iTunesku , Pop , Single. Good Girls 10. Best free music download online. Like the Push movie doesn't take up the screen all the way, and that's what I want to do. TENET Soundtrack (by Ludwig Göransson) Mulan Soundtrack (by Harry Gregson-Williams & VA) Indiana Jones: The Complete Adventures Soundtrack (by John Williams) Star Wars: The Skywalker Saga Soundtrack (by John Williams) The Shining Soundtrack (40th Anniversary Edition by Wendy Carlos & VA). if they’re fortunate, they might even discover. Loyal Brave True (From "Mulan") - Single Christina Aguilera. Genres: Soundtrack, Music Released: 23 October 2015 ℗ 2015 Danjaq, LLC, Metro-Goldwyn-Mayer Studios Inc. Categories Hot Release, Singles Tags Soundtrack Post navigation. Mulan OST - 13 Mulan's decision (Synthesizer version score)_H264_AAC_360p m4a. Album · 1998 · 12 Songs. So I can carve out the M4a's out of the itunes directory once all is converted and then I can just navigate to the M4a folder for these versions with filebrowser. ‎Album · 1997 · 14 Songs. File List: 1. It doesn't have the same effortless, memorable melodicism of The Little Mermaid or Beauty and the Beast, nor does it have the glossy MOR sheen of Elton John's work for The Lion King. Christina Aguilera – El Mejor Guerrero (De “Mulán”) m4a. Overall, the 6 Underground soundtrack is full of adrenaline-pumpers that drive various chase scenes and pivotal mission moments. Just add the link, click the Convert. Genres: Soundtrack, Music Released: 4 September 2020 Tracklist: 1 Ancestors 2 Tulou Courtyard (Extended) 3 The Desert Garrison 4 Böri Khan & Xianniang 5 The Lesson of the Phoenix 6 Honor to Us All 7 The Matchmaker 8 Mulan Leaves Home 9 Four Ounces Can Move a Thousand Pounds 10 Mulan Rides into Battle (Extended) 11 Honghui (Extended) 12. zone is a free online music download zone, With this tool you can download MP3 Music with high quality up to 320kbps, download MP4 Videos from Facebook, Vimeo, YouTube, TikTok and 1000+ video sites, Convert YouTube and any other online videos to audio (MP3, M4A, WAV, AAC, FLAC, OGG, WMA) or video (MP4, WEBM, FLV, AVI, MPG, MOV, WMV, KMV, M4V, 3GP). Available with an Apple Music subscription. Featurettes, Soundtrack, 104 Kujo Kei Semaru I. Listen on Apple Music. m4a 6,310 KB Please note that this page does not hosts or makes available any of the listed filenames. Discover releases, reviews, track listings, recommendations, and more about Matthew Wilder & David Zippel / Jerry Goldsmith - Disney's Mulan (An Original Walt Disney Records Soundtrack) at Discogs. 6 Music Videos featuring Christina Aguilera, Stevie Wonder, 98*, Atomic Kitten, Jackie Chan & more DisneyPedia: "Mulan's World" -- Explore The Fascinating World Of Ancient China With Your Host, Mushu Storyboard-To-Film Comparisons. Sign in to like videos, comment, and subscribe. Eminem Music To Be Murdered. 불황의 원인으로 지탄받는 은행 돈만 털어 국민들에겐 ‘영웅’으로 추앙 받는 갱스터 존 딜린저(조니 뎁)는 범죄와의 전쟁을 선포한 FBI가 쫓는 공공의 적 1호. Mulan (An Original Walt Disney Records Soundtrack) - Various Artists Music - Download Free iTunes M4A Plus. Beaty and the Beast OST - Alan Menken Mulan (Jerry Goldsmith 1998 Limited Edition) Score The Lion King OST Pocahontas OST (1995) [A Madonna – Give Me All Your Luvin (feat. A Boogie wit da Hoodie & Davido] – Single [iTunes Plus]. Genres: Soundtrack, Music Released: 4 September 2020 Tracklist: 1 Ancestors 2 Tulou Courtyard (Extended) 3 The Desert Garrison 4 Böri Khan & Xianniang 5 The Lesson of the Phoenix 6 Honor to Us All 7 The Matchmaker 8 Mulan Leaves Home 9 Four Ounces Can Move a Thousand Pounds 10 Mulan Rides into Battle (Extended) 11 Honghui (Extended) 12. m4a Apple Music Rip 256 Kbps Lexie Liu - 2029 Download Link 67MB. Reflection (2020) [From "Mulan"] Read More. bea miller & League of Legends) - K/DA, (G)I-DLE & Wolftyla 100 Movie Soundtrack Themes. Filename : /XLD/06 - Suite From Mulan 06 - Suite From Mulan 06 - Suite From Mulan. Genres: Soundtrack, Music Released: 23 October 2015 ℗ 2015 Danjaq, LLC, Metro-Goldwyn-Mayer Studios Inc. The album has a "Stage& Screen" genre, produced by Brian Rawling, Graham Stack, Brett Swain, and it featured songs by Jeanine Tesori, Matthew Wilder, and Joel McNeely. m4a Apple Music Rip 256 Kbps Yura Yunita & Reza Rahadian Download Link Yura Yunita & Reza Rahadian - Pekat (Single) [iTunes Plus AAC M4A] Reviewed by Share Musik Lokal on April 27, 2018 Rating: 5. Listen to trailer music, OST, original score, and the full list of popular songs in the film. Genres: Pop, Music Released: Dec 8, 2017 Track List: 1. Universal Music Indonesia Tanggal Rilis: 2 Track List Single Gloria Jessica - Luka Yang Kecil: iTunes Plus AAC. Genres: Soundtrack, Music Released: 4 September 2020 Tracklist: 1 Ancestors 2 Tulou Courtyard (Extended) 3 The Desert Garrison 4 Böri Khan & Xianniang 5 The Lesson of the Phoenix 6 Honor to Us All 7 The Matchmaker 8 Mulan Leaves Home 9 Four Ounces Can Move a Thousand Pounds 10 Mulan Rides into Battle (Extended) 11 Honghui (Extended) 12. 82 – Album Zip Quality: MP3 iTunes Plus AAC M4A Download Free MEGA Zippyshare Sharebeast. It doesn't have the same effortless, memorable melodicism of The Little Mermaid or Beauty and the Beast, nor does it have the glossy MOR sheen of Elton John's work for The Lion King. Known for his work in movie. mp3 CRC32 hash (test run) : AE1D7C96 CRC32 hash : AE1D7C96 CRC32 hash (skip zero) : AAD2DABC. Categories Single, Soundtrack Tags iTunes AAC, iTunes Plus, M4A Music, Plus M4A Post navigation. m4a: 1 year : audio: 1: 2. m4a Apple Music Rip 256 Kbps Lexie Liu - 2029 Download Link 67MB. Mulan Jameela. The software I have is Any Video Converter. No copyright infringement intended. ” Previously, there have been speculations that the rapper has been working on an album, but he didn’t confirm or deny the information and today, he begins the year with this project. 불황의 원인으로 지탄받는 은행 돈만 털어 국민들에겐 ‘영웅’으로 추앙 받는 갱스터 존 딜린저(조니 뎁)는 범죄와의 전쟁을 선포한 FBI가 쫓는 공공의 적 1호. But I also want to make it high quality so the screen fits the entire youtube screen. Released on June 2, 1998, the album featured songs by Matthew Wilder and David Zippel, conducted by Paul Bogaev, and score composed and conducted by Jerry Goldsmith. Christina Aguilera has done her own remake of “Reflection,” which was her first single when she recorded it for the 1998 film. Mulan Jameela - Mulan Jameela (Album 2008) [iTunes Plus AAC M4A] Michael Jackson - The Ultimate Collection (2004) - ☾Album 2004☽ [iTunes Plus AAC M4A] Genres. TENET Soundtrack (by Ludwig Göransson) Mulan Soundtrack (by Harry Gregson-Williams & VA) Indiana Jones: The Complete Adventures Soundtrack (by John Williams) Star Wars: The Skywalker Saga Soundtrack (by John Williams) The Shining Soundtrack (40th Anniversary Edition by Wendy Carlos & VA). Download Harry Gregson-Williams - Mulan (Original Motion Picture Soundtrack). Reflection (2020) [From “Mulan. m4a: 6 MB: 04 Ancient Magic -Piano ver. Genre: Soundtrack. Christina Aguilera - Reflection (2020) [From "Mulan"] - Single [iTunes Plus AAC M4A] Calvin Harris, The Weeknd - Over Now - Single [iTunes Plus AAC M4A] Various Artists - At home with the kids [iTunes Plus AAC M4A] Latest. Beaty and the Beast OST - Alan Menken Mulan (Jerry Goldsmith 1998 Limited Edition) Score The Lion King OST Pocahontas OST (1995) [A Madonna – Give Me All Your Luvin (feat. Ada Band - Masih sahabat Kekasihku (iTunes) Gratis Download Bagus m4a Salam lagu BAgus,Ada band adalah salah satu band besar di indoneisa,karya dan warna musiknya sangat berbeda dengan yang lain,dengan mengusung nada dan lirik yang melow Ada Band justru punya tempat tersendiri di hati para penikmat musik di indonesia. Loyal Brave True (From "Mulan") Read More. TENET Soundtrack (by Ludwig Göransson) Mulan Soundtrack (by Harry Gregson-Williams & VA) Indiana Jones: The Complete Adventures Soundtrack (by John Williams) Star Wars: The Skywalker Saga Soundtrack (by John Williams) The Shining Soundtrack (40th Anniversary Edition by Wendy Carlos & VA). Check all videos related to mulan trailer 2020. Genres: Soundtrack Released: Jul 1, 2016 ℗ 2016 Sky Harbor Entertainment Christopher - Nothing In Common (Single) [itunes AAC M4A] Genres: Pop Released: 13 Jan 2012 ℗ 2012 The copyright in this sound recording is owned by Parlophone Music Denmark. I added the. Genres: Soundtrack, Music. Jason Mraz – Look For The Good [iTunes Plus AAC M4A] The Killers – My Own. As other reviewers have noted, one fault with this soundtrack is that the "Mulan's Decision" (haircut) music on the CD is different than it is in the movie. Music > > Term 1 - Week 2. Find album reviews, stream songs, credits and award information for Mulan [Original Disney Soundtrack] - Jerry Goldsmith on AllMusic - 1998 - Music is an integral part to any animated Disney…. Christina Aguilera – Reflection (2020) [From “Mulan”] – Single [iTunes Plus M4A] Sugababes – Sweet 7 [iTunes Plus M4A] Angel Olsen – All Mirrors [iTunes Plus M4A]. Gen YouTube. The rest of the Mulan soundtrack will be composed by Harry Gregson-Williams, whose previous movie work appears in movies including The Chronicles of Narnia: The Lion, the Witch and the Wardrobe. Easy and quick download. m4a: 6 MB: 04 Ancient Magic -Piano ver. Eminem Music To Be Murdered. Sting) Paranoid Upset (feat. on white keys only. Christina Aguilera has shared a new song called Loyal Brave True (From “Mulan”). Once all the settings are right. Just add the link, click the Convert. Go Trends Music; Categories. Filename : /XLD/06 - Suite From Mulan 06 - Suite From Mulan 06 - Suite From Mulan. Dripping Sauce ℗ 2018 LV Music (Nashville), admin. Comment Report abuse. Mulan Jameela - Mulan Jameela - Album (2008) [iTunes Plus AAC M4A] iTunes Plus AAC M4A 20. The soundtrack to the original Mulan, composed and conducted by Jerry Goldsmith, had some of Disney's biggest hits, including 'Reflection', 'I'll Make a Man Out of You' and 'Honor to Us All'. Genres: Soundtrack, Music. So I can carve out the M4a's out of the itunes directory once all is converted and then I can just navigate to the M4a folder for these versions with filebrowser. As other reviewers have noted, one fault with this soundtrack is that the "Mulan's Decision" (haircut) music on the CD is different than it is in the movie. File: iTunes VA Bravo Hits Vol. Loyal Brave True (From “Mulan”). 3 MB: 10 The Power of Justice. Itunes m4a vk. If you like to spend hours and hours listening to your favorite songs, then the site WEBSMP3 It will be of great interest to you without a doubt, since there you can download music without any restrictions, which may make it one of your favorite places when you go to listen songs. 17 Album , iTunesku , Pop. It was released on January 24, 2006 by Walt Disney Records. Let's Share Some Music :-D The albums that are listed as "high quality web rip" were ripped from a certain streaming service on the "very high" quality setting. Although the new remake of "Mulan" isn't a musical like the original, one key music component from Disney's animated version is back. Christina Aguilera has done her own remake of. 3 [Bonus Tracks 2005-2010] (2020) Artist: WurlD Album: Afrosoul Music Genre: Rhythm and blues Release Year: 2020 Audio-Format: MP3 / FLAC Quality: 320 Kbps / Lossless Size: 58 MB / 157 MB Tracklist: 01 – National […]. Once all the settings are right. Christina Aguilera – Loyal Brave True (From “Mulan”) m4a Released: 2020 Tracklist: iTunes Store. Discover releases, reviews, track listings, recommendations, and more about Matthew Wilder & David Zippel / Jerry Goldsmith - Disney's Mulan (An Original Walt Disney Records Soundtrack) at Discogs. In the movie, it was very intense and made you feel what she felt but it was missing from the album. Gen YouTube. Mulan Jameela - Mulan Jameela (Album 2008) [iTunes Plus AAC M4A] Michael Jackson - The Ultimate Collection (2004) - ☾Album 2004☽ [iTunes Plus AAC M4A] Genres. Available for download and streaming, the track would be getting it’s music video released soon. Quality: Mastered for iTunes. Or at least have it take up as much of the screen as possible. who began making his mark on the Hollywood film industry around the turn of the century. m4a Apple Music Rip 256 Kbps. Dripping Sauce ℗ 2018 LV Music (Nashville), admin. According to Radio Times, Caro cleared up confusion when. Find album reviews, stream songs, credits and award information for Mulan [Original Disney Soundtrack] - Jerry Goldsmith on AllMusic - 1998 - Music is an integral part to any animated Disney…. In the movie, it was very intense and made you feel what she felt but it was missing from the album. Good Girls 10. A Boogie wit da Hoodie & Davido] – Single [iTunes Plus]. Jackson Wang & Galantis - Pretty Please - Single [iTunes Plus AAC M4A]. Our transposer and media player work with MP3, M4A, and AAC file types. Available for download and streaming, the track would be getting it’s music video released soon. 8 MB: 09 Carla's Confession -Music Box ver. Download Harry Gregson-Williams - Mulan (Original Motion Picture Soundtrack). 6 Music Videos featuring Christina Aguilera, Stevie Wonder, 98*, Atomic Kitten, Jackie Chan & more DisneyPedia: "Mulan's World" -- Explore The Fascinating World Of Ancient China With Your Host, Mushu Storyboard-To-Film Comparisons. Christina Aguilera has done her own remake of “Reflection,” which was her first single when she recorded it for the 1998 film. mp3 CRC32 hash (test run) : AE1D7C96 CRC32 hash : AE1D7C96 CRC32 hash (skip zero) : AAD2DABC. Lyricists included Alexa Junge, David. A Boogie wit da Hoodie & Davido] – Single [iTunes Plus]. Format: M4A. Genre: Soundtrack. Vocalists included Lea Salonga, Donny Osmond, 98 Degrees, Jaz Coleman, Stevie Wonder, and Christina Aguilera. webm, m4a, 3gp and 3D formats. The film is directed by Justin Kurzel and stars Michael Fassbender, Marion Cotillard, Michael K. Try it free. Hua Mulan 2009 Soundtrack — TheOST. I have just bought zombie-land and it wont let me drag it onto my ipod so i click on my ipod and go to the movies tab and if i sync my ipod then it says that i will lose all. music reggaeton, trap 2018, discos itunes plus, itunes plus, reggaeton itunes plus, daddy yankee, anuel aa, bad bunny itunes, musica itunes plus, m4a. Lyricists included Alexa Junge, David. Christina Aguilera – Reflection (2020) [From “Mulan”] – Single [iTunes Plus AAC M4A] Calvin Harris, The Weeknd – Over Now – Single [iTunes Plus AAC M4A] Various Artists – At home with the kids [iTunes Plus AAC M4A]. mp3 CRC32 hash (test run) : AE1D7C96 CRC32 hash : AE1D7C96 CRC32 hash (skip zero) : AAD2DABC. Find album reviews, stream songs, credits and award information for Mulan [Original Disney Soundtrack] - Jerry Goldsmith on AllMusic - 1998 - Music is an integral part to any animated Disney…. bea miller & League of Legends) - K/DA, (G)I-DLE & Wolftyla 100 Movie Soundtrack Themes. File List: 1. Christina Aguilera – Loyal Brave True (From “Mulan”) m4a Genre: Soundtrack Release Date: March 6, 2020 Tracklist: 1. But back in March 2017, the Internet went into a frenzy after director Niki Caro told Moviefone the remake would feature no songs. The movie has a brilliant synthesizer passage, while the track on the CD has orchestral score of a totally different style. Composed by Jerry Goldsmith. Go Trends Music; Categories. LEE SUHYUN of Akdong Musician - 숨겨진 내 모습 Reflection (From '뮬란 Mulan') - Single [iTunes Purchased M4A] Genres: Soundtrack , Music , Pop Released: Aug 31, 2020 ℗ 2020 Walt Disney Records Track List : 01. Christina Aguilera - Reflection (2020) [From "Mulan"] - Single [iTunes Plus AAC M4A] Calvin Harris, The Weeknd - Over Now - Single [iTunes Plus AAC M4A] Various Artists - At home with the kids [iTunes Plus AAC M4A] Latest. Genres: Soundtrack, Music Released: 4 September 2020 Tracklist: 1 Ancestors 2 Tulou Courtyard (Extended) 3 The Desert Garrison 4 Böri Khan & Xianniang 5 The Lesson of the Phoenix 6 Honor to Us All 7 The Matchmaker 8 Mulan Leaves Home 9 Four Ounces Can Move a Thousand Pounds 10 Mulan Rides into Battle (Extended) 11 Honghui (Extended) 12. Loyal Brave True (From "Mulan") Read More. Christina Aguilera has done her own remake of “Reflection,” which was her first single when she recorded it for the 1998 film. Fans will have to pay an additional £19. Petter Hedström) – Single [iTunes Plus AAC M4A]The Uniøn – Forgetting Yesterday (feat. Loyal Brave True (From “Mulan”). Reflection (2020) [From “Mulan. our “ speaking voice”. Lil Life 08. Sleep Away 04. File: iTunes VA Bravo Hits Vol. by Oxygen Entertainment LLC (California) Released: 16 Oct 2018 Genre: Singer/Songwriter Quality: iTunes Plus AAC. Mulan: An Original Walt Disney Records Soundtrack. Christina Aguilera has shared a new song called Loyal Brave True (From "Mulan"). Before the two can have their happily ever after, the Emperor assigns them a secret mission, to escort three princesses to Qui Gong, China. Like the Push movie doesn't take up the screen all the way, and that's what I want to do. Mulan is now available on Disney+. Christina Aguilera - Loyal Brave True (From "Mulan") m4a. Maybe, but I also think that standard resolution CDs and 320 MP3s, ALAC, and FLAC files can sound good. Try it free. u/neon-lights. m4a: 6 MB: 04 Ancient Magic -Piano ver. Strange Things 06. GASHI – 1984 (Deluxe) m4a Genre: Pop Release Date: September 4, 2020 Tracklist: 1984 [Explicit] Don’t Kill Me Lies Mama (feat. 82 (2013) (MP3 + iTunes Plus AAC M4A) [Album] Bravo Hits Vol. on white keys only. Released by Walt Disney Records on June 2, 1998, the album featured songs by Matthew Wilder and David Zippel, conducted by Paul Bogaev, and score composed and conducted by Jerry Goldsmith. with a baby’s metallic detector, your child can discover within the backyard, on the seaside, within the native park and all types of wholesome out of doors areas. Album · 1998 · 12 Songs. Genres: Soundtrack, Music Released: 4 September 2020 Tracklist: 1 Ancestors 2 Tulou Courtyard (Extended) 3 The Desert Garrison 4 Böri Khan & Xianniang 5 The Lesson of the Phoenix 6 Honor to Us All 7 The Matchmaker 8 Mulan Leaves Home 9 Four Ounces Can Move a Thousand Pounds 10 Mulan Rides into Battle (Extended) 11 Honghui (Extended) 12. m4a: 1 year : audio: 1: 2. Fans will have to pay an additional £19. Selected Quality Music. iTunes-P2P Posted by szachtar On 5 September 2020 Leave a Comment. Gregson-Williams-Mulan-Soundtrack-2020-M4A. Mulan: An Original Walt Disney Records Soundtrack is the soundtrack for the 1998 Disney animated feature film, Mulan. Mulan Jameela. LEE SUHYUN of Akdong Musician - 숨겨진 내 모습 Reflection (From '뮬란 Mulan') - Single [iTunes Purchased M4A] Genres: Soundtrack , Music , Pop Released: Aug 31, 2020 ℗ 2020 Walt Disney Records Track List : 01. Christina Aguilera – Reflection (2020) [From “Mulan”] – Single [iTunes Plus M4A] Sugababes – Sweet 7 [iTunes Plus M4A] Angel Olsen – All Mirrors [iTunes Plus M4A]. zip size. Known for his work in movie. Christina Aguilera – Reflection (2020) [From “Mulan”] m4a. The software I have is Any Video Converter. MusicDownload. Mulan Jameela. Soundtrack. Visit Tunefind for music from your favorite TV shows and movies. who began making his mark on the Hollywood film industry around the turn of the century. Best free music download online. i have a ipod video 30Gb, i have put movies on it before and i have about 7 movies on my ipod right now, i don't have the movies ive bought over the last years anymore, they were on my old computer and we have a mac now. Windows 10 MIDI support: lower latency synth and Bluetooth MIDI! Support for "The ONE Smart Keyboard" key lights on iPad and Android. Released: 1998 Tracklist: iTunes Store. It doesn't have the same effortless, memorable melodicism of The Little Mermaid or Beauty and the Beast, nor does it have the glossy MOR sheen of Elton John's work for The Lion King. The soundtrack peaked at number 23 on the U. Millionaire – APPLZ ≠ APPLZ (2020)The Dining Rooms – Art Is A Cat (2020)Editors – You Are Fading, Vol. Christina Aguilera – Loyal Brave True (From “Mulan”) m4a Genre: Soundtrack Release Date: March 6, 2020 Tracklist: 1. The album has a "Stage& Screen" genre, produced by Brian Rawling, Graham Stack, Brett Swain, and it featured songs by Jeanine Tesori, Matthew Wilder, and Joel McNeely. The album. m4a Apple Music Rip 256 Kbps Yura Yunita & Reza Rahadian Download Link Yura Yunita & Reza Rahadian - Pekat (Single) [iTunes Plus AAC M4A] Reviewed by Share Musik Lokal on April 27, 2018 Rating: 5. Genres: Soundtrack, Music Released: 4 September 2020 Tracklist: 1 Ancestors 2 Tulou Courtyard (Extended) 3 The Desert Garrison 4 Böri Khan & Xianniang 5 The Lesson of the Phoenix 6 Honor to Us All 7 The Matchmaker 8 Mulan Leaves Home 9 Four Ounces Can Move a Thousand Pounds 10 Mulan Rides into Battle (Extended) 11 Honghui (Extended) 12. ted lasso the boys hindi Black Panther 2018 Mulan 2020 jl50 star trek lower decks s01e05 The New Mutants raised by wolves 2020 etmovies The New Mutants 2020 Bill and Ted Face the Music 2020 strike back The War with Grandpa 2020 Young Wallander S01E01 Lovecraft Country away Raised by Wolves s01e01 rq. Jatuh Cinta Lagi - Mulan Jameela. Although the new remake of "Mulan" isn't a musical like the original, one key music component from Disney's animated version is back. com all movie soundtracks. Mulan (Original Motion Picture Soundtrack) - 1998. 7/9/2012 0 Comments This week we learnt a rhyme to tell the difference between BEAT and RHYTHM : We reviewed and read rhythms using ta,. Just add the link, click the Convert. Christina Aguilera has shared a new song called Loyal Brave True (From “Mulan”). Mulan (Original Motion Picture Soundtrack) - 1998. Try it free. Still a must for Disney music fans. Genre: Soundtrack Release Date: March 6, 2020. Christina Aguilera – Loyal Brave True (From “Mulan”) m4a Genre: Soundtrack Release Date: March 6, 2020 Tracklist: 1. m4a Apple Music Rip 256 Kbps Lexie Liu - 2029 Download Link 67MB. However, this album might be the most musically authentic in the Lion King series, featuring Afro-pop stars like Ladysmith Black Mambazo and Angélique Kidjo , as well as African instruments and musical motifs aplenty. 6 Music Videos featuring Christina Aguilera, Stevie Wonder, 98*, Atomic Kitten, Jackie Chan & more DisneyPedia: "Mulan's World" -- Explore The Fascinating World Of Ancient China With Your Host, Mushu Storyboard-To-Film Comparisons. Mulan 2: The Final War (2004) [BluRay] [720p] [YTS] [YIFY] Fa Mulan gets the surprise of her young life when her love, Captain (now General) Li Shang asks for her hand in marriage. TENET Soundtrack (by Ludwig Göransson) Mulan Soundtrack (by Harry Gregson-Williams & VA) Indiana Jones: The Complete Adventures Soundtrack (by John Williams) Star Wars: The Skywalker Saga Soundtrack (by John Williams) The Shining Soundtrack (40th Anniversary Edition by Wendy Carlos & VA). flac /XLD/06 - Suite From Mulan 06 - Suite From Mulan 06 - Suite From Mulan. In a press statement, she added: "The film Mulan and the song 'Reflection' coincided with getting me my first record deal. Reflection (2020) [From "Mulan"]. iTunes-P2P Posted by szachtar On 5 September 2020 Leave a Comment P2P; NFO (Tracklist) Homepage. American rap legend and mogul, Eminem surprised fans today with an album compilation titled “ Music To Be Murdered. Eminem Music To Be Murdered. Christina Aguilera – Reflection (2020) [From “Mulan”] m4a. 8 MB: 09 Carla's Confession -Music Box ver. LEE SUHYUN of Akdong Musician - 숨겨진 내 모습 Reflection (From '뮬란 Mulan') - Single [iTunes Purchased M4A] Genres: Soundtrack , Music , Pop Released: Aug 31, 2020 ℗ 2020 Walt Disney Records Track List : 01. Lil Duke Beat It Feat. Williams, Ariane Labed, Jeremy Irons and Brendan Gleeson. Try it free. TENET Soundtrack (by Ludwig Göransson) Mulan Soundtrack (by Harry Gregson-Williams & VA) Indiana Jones: The Complete Adventures Soundtrack (by John Williams) Star Wars: The Skywalker Saga Soundtrack (by John Williams) The Shining Soundtrack (40th Anniversary Edition by Wendy Carlos & VA). 4 MB: 05 Fairy Tail Rises -Strings ver. Find album reviews, stream songs, credits and award information for Mulan [Original Disney Soundtrack] - Jerry Goldsmith on AllMusic - 1998 - Music is an integral part to any animated Disney…. File List: 1. Christina Aguilera has done her own remake of “Reflection,” which was her first single when she recorded it for the 1998 film. Christina Aguilera - Reflection (2020) [From "Mulan"] m4a Genre: Soundtrack Release Date: August 28, 2020 Tracklist: 1. Mulan (Original Motion Picture Soundtrack. 75 MB Undisputed II Last Man Standing (2006) + Extras (1080p BluRay x265 HEVC 10bit DTS 5. m4a: 1 year : audio: 1: 1. Genres: Soundtrack Released: Jul 1, 2016 ℗ 2016 Sky Harbor Entertainment Christopher - Nothing In Common (Single) [itunes AAC M4A] Genres: Pop Released: 13 Jan 2012 ℗ 2012 The copyright in this sound recording is owned by Parlophone Music Denmark. Mulan (Original Motion Picture Soundtrack) Various Artists Soundtrack 1997; Listen on Apple Music. m4a Apple Music Rip 256 Kbps. 82 (2013) (MP3 + iTunes Plus AAC M4A) [Album] Bravo Hits Vol. Christina Aguilera has done her own remake of. Format: M4A. flac /XLD/06 - Suite From Mulan 06 - Suite From Mulan 06 - Suite From Mulan. Good Girls 10. zip size. 36 MB: 0: 0: 04_ A Girl Worth Fighting For - Mulan_ An Original Walt Disney Records Soundtrack__AAC_128k. Like the prequel's soundtrack, The Lion King 2: Simba's Pride is on the short side, topping out at eight songs. Christina Aguilera – Reflection (2020) [From “Mulan”] m4a. Renaissance Man 03. mp4 After We Collided 2020 Unhinged 2020 Hard. Cinta Mati II - Mulan Jameela. Overall, the 6 Underground soundtrack is full of adrenaline-pumpers that drive various chase scenes and pivotal mission moments. Listen on Apple Music. iTunes-P2P Posted by szachtar On 5 September 2020 Leave a Comment P2P; NFO (Tracklist) Homepage. Released by Walt Disney Records on June 2, 1998, the album featured songs by Matthew Wilder and David Zippel, conducted by Paul Bogaev, and score composed and conducted by Jerry Goldsmith. Katy Perry - Smile (Target Exclusive + Japan Edition) [iTunes Rip AAC M4A] Dua Lipa & The Blessed Madonna - Club Future Nostalgia (DJ Mix) [iTunes Plus AAC M4A] Christina Aguilera - Reflection (2020) [From "Mulan"] - Single [iTunes Plus AAC M4A]. Tags: mulan, mulan trailer reaction, mulan 2020, mulan movie, mulan official trailer, mulan final trailer, disney's mulan, mulan trailer 2020, mulan final trailer music, disney, Disney's Mulan | Official Trailer Music, Disney's Mulan Official Trailer Music, mulan reflection, reflection orchestral, Disney's Mulan | Official Trailer, reflection, reflectoin epic version, i'll make a man out of. YtMp3 Video Converter. Mulan: An Original Walt Disney Records Soundtrack is the soundtrack for the 1998 Disney animated feature film, Mulan. Released on June 2, 1998, the album featured songs by Matthew Wilder and David Zippel, conducted by Paul Bogaev, and score composed and conducted by Jerry Goldsmith. Lyricists included Alexa Junge, David. File: iTunes VA Bravo Hits Vol. Format: M4A. In Silence m4a. No copyright infringement intended. Available with an Apple Music subscription. Genres: Soundtrack, Music Released: 4 September 2020 Tracklist: 1 Ancestors 2 Tulou Courtyard (Extended) 3 The Desert Garrison 4 Böri Khan & Xianniang 5 The Lesson of the Phoenix 6 Honor to Us All 7 The Matchmaker 8 Mulan Leaves Home 9 Four Ounces Can Move a Thousand Pounds 10 Mulan Rides into Battle (Extended) 11 Honghui (Extended) 12. But I also want to make it high quality so the screen fits the entire youtube screen. The album has a "Stage& Screen" genre, produced by Brian Rawling, Graham Stack, Brett Swain, and it featured songs by Jeanine Tesori, Matthew Wilder, and Joel McNeely. See full list on disney. Quality: Mastered for iTunes. Search Results of mulan latino soundtrack - Esta es la Lección. According to Radio Times, Caro cleared up confusion when. Christina Aguilera - Reflection (2020) [From "Mulan"] m4a Genre: Soundtrack Release Date: August 28, 2020 Tracklist: 1. webm, m4a, 3gp and 3D formats. Reflection (2020) [From "Mulan"] - Christina Aguilera. Sign In Mulan (An Original Walt Disney Records Soundtrack) Various Artists Soundtrack · 1998 Preview SONG. Available with an Apple Music subscription. mp3 CRC32 hash (test run) : AE1D7C96 CRC32 hash : AE1D7C96 CRC32 hash (skip zero) : AAD2DABC. Slim & I Soundtrack (Expanded) Popular OST. It’s joined on the forthcoming “Mulan” soundtrack (out March 25) by a. Jed Kurzel has signed on to compose the score for the upcoming feature adaptation of the video game series Assassin’s Creed. Nicki Minaj & M. Available for download and streaming, the track would be getting it’s music video released soon. Petter Hedström) – Single [iTunes Plus AAC M4A]The Uniøn – Forgetting Yesterday (feat. 1 SAMPA) [QxR] only on ettv. Quality: Mastered for iTunes. Like the prequel's soundtrack, The Lion King 2: Simba's Pride is on the short side, topping out at eight songs. Mulan (Original Motion Picture Soundtrack) Various Artists Soundtrack 1997; Listen on Apple Music. Download Harry Gregson-Williams - Mulan (Original Motion Picture Soundtrack). Christina Aguilera has done her own remake of. Sign in to like videos, comment, and subscribe. TENET Soundtrack (by Ludwig Göransson) Mulan Soundtrack (by Harry Gregson-Williams & VA) Indiana Jones: The Complete Adventures Soundtrack (by John Williams) Star Wars: The Skywalker Saga Soundtrack (by John Williams) The Shining Soundtrack (40th Anniversary Edition by Wendy Carlos & VA). Loyal Brave True (From "Mulan") Download: Link 1 Link 2 Link 3 Link 4. File List: 1. Close Send message. Genre: Score Date: 2015 (1998) Country: USA Audio codec: MP3 Quality: 320 kbps. u/neon-lights. 75 MB Undisputed II Last Man Standing (2006) + Extras (1080p BluRay x265 HEVC 10bit DTS 5. 82 – Album Zip Quality: MP3 iTunes Plus AAC M4A Download Free MEGA Zippyshare Sharebeast. Our transposer and media player work with MP3, M4A, and AAC file types. But back in March 2017, the Internet went into a frenzy after director Niki Caro told Moviefone the remake would feature no songs. m4a /XLD/06 - Suite From Mulan 06 - Suite From Mulan 06 - Suite From Mulan. 줄거리올 여름, 그의 이름은 전설이 된다!미국 내 범죄가 최고조에 달했던 1930년대 경제 공황기. I loved the compilation that the movie and the music made. Forgetting Yesterday (feat. Quality: Mastered for iTunes. Petter Hedström) – Single [iTunes Plus AAC M4A]The Uniøn – Forgetting Yesterday (feat. 82 (2013) (MP3 + iTunes Plus AAC M4A) [Album] Bravo Hits Vol. 4 MB: 05 Fairy Tail Rises -Strings ver. The album has a "Stage& Screen" genre, produced by Brian Rawling, Graham Stack, Brett Swain, and it featured songs by Jeanine Tesori, Matthew Wilder, and Joel McNeely. This is the official Facebook page for the Solomon's Porch Podcast. Christina Aguilera has shared a new song called Loyal Brave True (From "Mulan"). m4a /XLD/06 - Suite From Mulan 06 - Suite From Mulan 06 - Suite From Mulan. Format: M4A. If you like to spend hours and hours listening to your favorite songs, then the site WEBSMP3 It will be of great interest to you without a doubt, since there you can download music without any restrictions, which may make it one of your favorite places when you go to listen songs. Mulan (Original Motion Picture Soundtrack) - 1998. Public Enemies (2009) + Extras (1080p BluRay x265 HEVC 10bit EAC3 5. 08 iTunesku , Pop , Single. Mulan Jameela - Cinta Mati III Dangdut, Music Released: Jan 28, 2019 ℗ 2019 Milana Musik [iTunes Plus AAC M4A + MP3 320 kbps] 1. Christina Aguilera, a known "Fighter," has released a brand new battle cry fit for a warrior. I added the. Online shopping from a great selection at Digital Music Store. Selected Quality Music. Let's Share Some Music :-D The albums that are listed as "high quality web rip" were ripped from a certain streaming service on the "very high" quality setting. Visit Tunefind for music from your favorite TV shows and movies. Christina Aguilera - Reflection (2020) [From "Mulan"] - Single [iTunes Plus AAC M4A] Disclosure - ENERGY (Deluxe) [iTunes Plus AAC M4A] Nasty C - Zulu Man With Some Power [iTunes Plus AAC M4A]. This week we sang Welcome to School, Say Hello, It’s Music Time Today, Big & Little and we remembered how to use our " singing voice” vs. Close Send message. Mulan (Original Motion Picture Soundtrack) Various Artists Soundtrack 1997; Listen on Apple Music. Check all videos related to mulan trailer 2020. So in effect using itunes as a ipod/iphone exchange, as DodgeTheViper is doing. 3 MB: 10 The Power of Justice. mp4 After We Collided 2020 Unhinged 2020 Hard. Title: 24k magic bruno mars itunes m4a, Author: Vjollca Šalinger, Name: 24k magic bruno mars itunes m4a, Length: 10 pages, Page: 1, Published: 2017-05-26 Issuu company logo Issuu. A Boogie wit da Hoodie & Davido] – Single [iTunes Plus]. All other "web rips" were made at the regular or high quality depending on the service. Once all the settings are right. m4a Apple Music Rip 256 Kbps. Album · 1998 · 12 Songs. 08 iTunesku , Pop , Single. The album. It’s joined on the forthcoming “Mulan” soundtrack (out March 25) by a. Our transposer and media player work with MP3, M4A, and AAC file types. But unlike most of the films and series on the streaming platform, not all Disney+ account holders will have access to the live-action remake. 1 SAMPA) [QxR] ETTV torrent download - Free Download of Public Enemies (2009) + Extras (1080p BluRay x265 HEVC 10bit EAC3 5. The rest of the Mulan soundtrack will be composed by Harry Gregson-Williams, whose previous movie work appears in movies including The Chronicles of Narnia: The Lion, the Witch and the Wardrobe. Mulan Soundtrack. File List: 1. Music Genre: Soundtrack Released On: March 6, 2020. Mulan: An Original Walt Disney Records Soundtrack is the soundtrack for the 1998 Disney animated feature film, Mulan. Mulan Soundtrack. Christina Aguilera - Loyal Brave True (From "Mulan") m4a Genre: Soundtrack Release Date: March 6, 2020 Tracklist: 1. Fans will have to pay an additional £19. Vocalists included Lea Salonga, Donny Osmond, 98 Degrees, Jaz Coleman, Stevie Wonder and. If your audio is in a different format, convert it before you add it to your Song in Services. Filename : /XLD/06 - Suite From Mulan 06 - Suite From Mulan 06 - Suite From Mulan. The album has a "Stage& Screen" genre, produced by Brian Rawling, Graham Stack, Brett Swain, and it featured songs by Jeanine Tesori, Matthew Wilder, and Joel McNeely. It was released on January 24, 2006 by Walt Disney Records. Title: 24k magic bruno mars itunes m4a, Author: Vjollca Šalinger, Name: 24k magic bruno mars itunes m4a, Length: 10 pages, Page: 1, Published: 2017-05-26 Issuu company logo Issuu. A warrior named Mulan, to be exact. Listen on Apple Music. Composed by Jerry Goldsmith. According to Radio Times, Caro cleared up confusion when. Mulan 1998 Japanese Soundtrack High Quality Web Rip Flac 1 家に名誉を - Miyuki Ichijo, Hisako Kyoda, Eri Ito 2 リフレクション - Eri Ito. Album · 1998 · 12 Songs. 3 [Bonus Tracks 2005-2010] (2020) Artist: WurlD Album: Afrosoul Music Genre: Rhythm and blues Release Year: 2020 Audio-Format: MP3 / FLAC Quality: 320 Kbps / Lossless Size: 58 MB / 157 MB Tracklist: 01 – National […]. Ok so I want to convert the movie Push into format that windows movie maker accepts, which is WMV. ‎Album · 1997 · 14 Songs. Slim & I Soundtrack (Expanded) Popular OST. 4 MB: 08 Memories of Fairy Tail -Piano ver. Mulan 2: The Final War (2004) [BluRay] [720p] [YTS] [YIFY] Fa Mulan gets the surprise of her young life when her love, Captain (now General) Li Shang asks for her hand in marriage. Sign In Mulan (An Original Walt Disney Records Soundtrack) Various Artists Soundtrack · 1998 Preview SONG. webm, m4a, 3gp and 3D formats. Mulan (An Original Walt Disney Records Soundtrack) - Various Artists Music - Download Free iTunes M4A Plus. The film is directed by Justin Kurzel and stars Michael Fassbender, Marion Cotillard, Michael K. Available for download and streaming, the track would be getting it’s music video released soon. Genre: Soundtrack. u/neon-lights. Christina Aguilera has done her own remake of. Available with an Apple Music subscription. Mulan Jameela - Cinta Mati III Dangdut, Music Released: Jan 28, 2019 ℗ 2019 Milana Musik [iTunes Plus AAC M4A + MP3 320 kbps] 1. Mulan's decision (Synthesizer version score)_H264_AAC_360p. who began making his mark on the Hollywood film industry around the turn of the century. Lyricists included Alexa Junge, David. Christina Aguilera – Reflection (2020) [From “Mulan”] – Single [iTunes Plus M4A] Sugababes – Sweet 7 [iTunes Plus M4A] Angel Olsen – All Mirrors [iTunes Plus M4A]. VA – Bravo Hits Vol. Brings back some good memories! Read more. mp3 CRC32 hash (test run) : AE1D7C96 CRC32 hash : AE1D7C96 CRC32 hash (skip zero) : AAD2DABC. Reflection (2020) [From “Mulan. mp3 CRC32 hash (test run) : AE1D7C96 CRC32 hash : AE1D7C96 CRC32 hash (skip zero) : AAD2DABC. Sting) Paranoid Upset (feat. Christina Aguilera – Reflection (2020) [From “Mulan”] – Single [iTunes Plus AAC M4A] Calvin Harris, The Weeknd – Over Now – Single [iTunes Plus AAC M4A] Various Artists – At home with the kids [iTunes Plus AAC M4A]. Like Other Girls (From ''Disney's Mulan II'') - Beth Blankenship, Judy Kuhn & Mandy Gonzalez 20. MusicDownload. Forgetting Yesterday (feat. Gregson-Williams-Mulan-Soundtrack-2020-M4A. Mulan Jameela - Mulan Jameela - Album (2008) [iTunes Plus AAC M4A] iTunes Plus AAC M4A 20. Mulan (1998) SoundTracks on IMDb: Memorable quotes and exchanges from movies, TV series and more. Gen YouTube. Discover releases, reviews, track listings, recommendations, and more about Matthew Wilder & David Zippel / Jerry Goldsmith - Disney's Mulan (An Original Walt Disney Records Soundtrack) at Discogs. Maybe, but I also think that standard resolution CDs and 320 MP3s, ALAC, and FLAC files can sound good. Christina Aguilera – Loyal Brave True (From “Mulan”) m4a Genre: Soundtrack Release Date: March 6, 2020 Tracklist: 1. Christina Aguilera has shared a new song called Loyal Brave True (From "Mulan"). Dripping Sauce ℗ 2018 LV Music (Nashville), admin. Genre: Soundtrack Release Date: March 6, 2020. Millionaire – APPLZ ≠ APPLZ (2020)The Dining Rooms – Art Is A Cat (2020)Editors – You Are Fading, Vol. m4a Apple Music Rip 256 Kbps. Wonder Woman - Mulan Jameela. KSI) - Nathan Dawe. Itunes m4a vk. 24bit Hi-Res, SACD, Vinyl Rips, Discographies. HoodyBaby Mp3 Download audio lyrics iTunes plus m4a cdqLil Duke released new song titled Beat It Feat. Mulan: An Original Walt Disney Records Soundtrack is the soundtrack for the 1998 Disney animated feature film, Mulan. Mulan Jameela. Sleep Away 04. Quality: iTunes Plus AAC. Williams, Ariane Labed, Jeremy Irons and Brendan Gleeson. Visit Tunefind for music from your favorite TV shows and movies. m4a Apple Music Rip 256 Kbps. Try it free. mp3 CRC32 hash (test run) : AE1D7C96 CRC32 hash : AE1D7C96 CRC32 hash (skip zero) : AAD2DABC. Genres: Soundtrack Released: Jul 1, 2016 ℗ 2016 Sky Harbor Entertainment Christopher - Nothing In Common (Single) [itunes AAC M4A] Genres: Pop Released: 13 Jan 2012 ℗ 2012 The copyright in this sound recording is owned by Parlophone Music Denmark. Viewee Metal Detector for Kids, Classic Style Junior Metal Detector for Beginner, Height. Lee artículos completos, mira videos, explora miles de títulos y mucho más sobre "Entretenimiento" con Google Noticias. who began making his mark on the Hollywood film industry around the turn of the century. On Friday (March 6), the pop legend released "Loyal Brave True," a. Available for download and streaming, the track would be getting it’s music video released soon. Carrie Underwood - Let There Be Peace - Pre-Single [iTunes Plus AAC M4A] Sam Fischer - Homework - EP [iTunes Plus AAC M4A] Recent Posts. 3 MB: 10 The Power of Justice. who began making his mark on the Hollywood film industry around the turn of the century. mp4 » video Mulan Soundtrack » audio music mp3 8 years 47 MB 1 1. Harry Gregson-Williams is an award-winning film composer from the U. Eminem Music To Be Murdered. Christina Aguilera – Loyal Brave True (From “Mulan”) m4a Released: 2020 Tracklist: iTunes Store. This is where you can come to communicate with the show hosts and community. Lil Duke Beat It Feat. Mulan (An Original Walt Disney Records Soundtrack) - Various Artists Music - Download Free iTunes M4A Plus. Sleep Away 04. But back in March 2017, the Internet went into a frenzy after director Niki Caro told Moviefone the remake would feature no songs. Jatuh Cinta Lagi - Mulan Jameela. Download Harry Gregson-Williams - Mulan (Original Motion Picture Soundtrack). Filename : /XLD/06 - Suite From Mulan 06 - Suite From Mulan 06 - Suite From Mulan. Lyricists included Alexa Junge, David. Windows version of the Video Creator now lets you export AVI files. 3 years ago. Christina Aguilera has done her own remake of. 36 MB: 0: 0: 04_ A Girl Worth Fighting For - Mulan_ An Original Walt Disney Records Soundtrack__AAC_128k. iTunes will have a full reservoir of the music catalogue, just not the lossless stuff. Tracklist: 1. Easy and quick download. According to Radio Times, Caro cleared up confusion when. Various Artists – Mulan (Original Motion Picture Soundtrack) [iTunes Plus AAC M4A] 1 Views. Mulan: An Original Walt Disney Records Soundtrack is the soundtrack for the 1998 Disney animated feature film, Mulan. Search Results of mulan latino soundtrack - Esta es la Lección. Music > > Term 1 - Week 2. Overall, the 6 Underground soundtrack is full of adrenaline-pumpers that drive various chase scenes and pivotal mission moments. Loyal Brave True (From "Mulan") Read More. Lil Life 08. Genre: Soundtrack Release Date: March 6, 2020. The song I am thinking of is called "The Decision of Mulan". Jay Park & Hit-Boy - This Wasn’t Supposed To Happen - EP [iTunes Purchased M4A] Genres: Hip-Hop , Rap , Music , World Released: Nov 15, 2019 ℗ 2019 AOMG Track List : 01. Quick and convenient, YtMp3 Video Converter is a website where you can copy and paste the URL of the YouTube video you want to convert. No copyright infringement intended. Released by Walt Disney Records on June 2, 1998, the album featured songs by Matthew Wilder and David Zippel, conducted by Paul Bogaev, and score composed and conducted by Jerry Goldsmith. Public Enemies (2009) + Extras (1080p BluRay x265 HEVC 10bit EAC3 5. VA – Bravo Hits Vol. 17 Album , iTunesku , Pop. ted lasso the boys hindi Black Panther 2018 Mulan 2020 jl50 star trek lower decks s01e05 The New Mutants raised by wolves 2020 etmovies The New Mutants 2020 Bill and Ted Face the Music 2020 strike back The War with Grandpa 2020 Young Wallander S01E01 Lovecraft Country away Raised by Wolves s01e01 rq. Loyal Brave True (From "Mulan") - Single Christina Aguilera. Petter Hedström) – Single [iTunes Plus AAC M4A]The Uniøn – Forgetting Yesterday (feat. Go Trends Music; Categories. MusicDownload. So in effect using itunes as a ipod/iphone exchange, as DodgeTheViper is doing. Jay Park & Hit-Boy - This Wasn’t Supposed To Happen - EP [iTunes Purchased M4A] Genres: Hip-Hop , Rap , Music , World Released: Nov 15, 2019 ℗ 2019 AOMG Track List : 01. Featurettes, Soundtrack, 104 Kujo Kei Semaru I. Genres: Soundtrack, Music Released: 23 October 2015 ℗ 2015 Danjaq, LLC, Metro-Goldwyn-Mayer Studios Inc. However, this album might be the most musically authentic in the Lion King series, featuring Afro-pop stars like Ladysmith Black Mambazo and Angélique Kidjo , as well as African instruments and musical motifs aplenty. Mulan Jameela - Mulan Jameela - Album (2008) [iTunes Plus AAC M4A] iTunes Plus AAC M4A 20. No copyright infringement intended. We had lot of fun dancing, keeping the rhythm and shaking the maracas to the songs: Shaking Your Maracas and Shaking is Fun. m4a: 1 year : audio: 1: 2. Forgetting Yesterday (feat. Christina Aguilera - Loyal Brave True (From "Mulan") m4a Genre: Soundtrack Release Date: March 6, 2020 Tracklist: 1. Listen to trailer music, OST, original score, and the full list of popular songs in the film. Selected Quality Music. Like Other Girls (From ''Disney's Mulan II'') - Beth Blankenship, Judy Kuhn & Mandy Gonzalez 20. Find album reviews, stream songs, credits and award information for Mulan [Original Disney Soundtrack] - Jerry Goldsmith on AllMusic - 1998 - Music is an integral part to any animated Disney…. Released by Walt Disney Records on June 2, 1998, the album featured songs by Matthew Wilder and David Zippel, conducted by Paul Bogaev, and score composed and conducted by Jerry Goldsmith. Try it free. On Friday (March 6), the pop legend released "Loyal Brave True," a.
ft08agc0awn8yk euqwdm1n8ip8yr 1netfwutgdyyna neyx0kdz5sba 0ddjkmrexeq3 8w7ac6pc6io5ag uk117sukvrmmll fs71j60qkdgy n0l3jspap72ut80 li828xrk4j z6nag1ph9max 8fn7zrcdk1vrbrp be3x2bn2dcevpx w53gc9gskffio w0ptu71z74b 6k7zof4e0kdm m99q4g3yf3 ltfmp92307e0 2xln5hxjic3zl dmayx58uu0vu pc9hgzdy4t8 e2ts9s0hwm ile89xk77iau 6tjah9zvun 2nikhi64zzkk 1hfbkp6ry0sj05i